pastime

Entertainment


You are not connected. Please login or register

 
 

Pain and gain 2013 BD1080p Spanish latin/Eng/French+Subs

Message (Page 1 of 1)

#1

Invulnever

Invulnever
 
Supporter
Supporter

Posted on 14/8/2013, 9:11 pm

 

*
POPULAR

Pain and gain 2013 BD1080p Spanish latin/Eng/French+Subs Pain_and_Gain_2013_Blu_Ray

Based on the true story of Daniel Lugo (Mark Wahlberg) a Miami bodybuilder who wants to live the American dream. He would like to have the money that other people have. So he enlists the help of fellow bodybuilder Adrian Doorbal (Anthony Mackie) and ex-convict, Christian bodybuilder Paul Doyle (Dwayne Johnson). Their kidnapping and extortion scheme goes terribly wrong since they have muscles for brains and they’re left to haphazardly try to hold onto the elusive American dream.

Spoiler:

Complete name                            : Pain.and.Gain.2013.1080p.BluRay.AVC.TrueHD.7.1-HDWinG [PublicHD]\PAG.mkv
Format                                   : Matroska
Format version                           : Version 4 / Version 2
File size                                : 6.62 GiB
Duration                                 : 2h 9mn
Overall bit rate                         : 7 311 Kbps
Movie name                               : Pain_And_Gain.Title800.BlurayRip
Encoded date                             : UTC 2013-08-14 09:11:21
Writing application                      : mkvmerge v6.3.0 ('You can't stop me!') built on Jun 28 2013 20:09:41
Writing library                          : libebml v1.3.0 + libmatroska v1.4.0

Video
ID                                       : 1
Format                                   : AVC
Format/Info                              : Advanced Video Codec
Format profile                           : High@L4.1
Format settings, CABAC                   : Yes
Format settings, ReFrames                : 2 frames
Codec ID                                 : V_MPEG4/ISO/AVC
Duration                                 : 2h 9mn
Bit rate                                 : 5 246 Kbps
Width                                    : 1 920 pixels
Height                                   : 800 pixels
Display aspect ratio                     : 2.40:1
Frame rate mode                          : Constant
Frame rate                               : 23.976 fps
Color space                              : YUV
Chroma subsampling                       : 4:2:0
Bit depth                                : 8 bits
Scan type                                : Progressive
Bits/(Pixel*Frame)                       : 0.142
Stream size                              : 4.75 GiB (72%)
Writing library                          : x264 core
Default                                  : Yes
Forced                                   : No
Color primaries                          : BT.709
Transfer characteristics                 : BT.709
Matrix coefficients                      : BT.709

Audio #1
ID                                       : 2
Format                                   : AC-3
Format/Info                              : Audio Coding 3
Mode extension                           : CM (complete main)
Format settings, Endianness              : Big
Codec ID                                 : A_AC3
Duration                                 : 2h 9mn
Bit rate mode                            : Constant
Bit rate                                 : 640 Kbps
Channel(s)                               : 6 channels
Channel positions                        : Front: L C R, Side: L R, LFE
Sampling rate                            : 48.0 KHz
Bit depth                                : 16 bits
Compression mode                         : Lossy
Stream size                              : 593 MiB (9%)
Language                                 : French
Default                                  : Yes
Forced                                   : No

Audio #2
ID                                       : 3
Format                                   : AC-3
Format/Info                              : Audio Coding 3
Mode extension                           : CM (complete main)
Format settings, Endianness              : Big
Codec ID                                 : A_AC3
Duration                                 : 2h 9mn
Bit rate mode                            : Constant
Bit rate                                 : 640 Kbps
Channel(s)                               : 6 channels
Channel positions                        : Front: L C R, Side: L R, LFE
Sampling rate                            : 48.0 KHz
Bit depth                                : 16 bits
Compression mode                         : Lossy
Stream size                              : 593 MiB (9%)
Language                                 : Spanish
Default                                  : No
Forced                                   : No

Audio #3
ID                                       : 4
Format                                   : AC-3
Format/Info                              : Audio Coding 3
Mode extension                           : CM (complete main)
Format settings, Endianness              : Big
Codec ID                                 : A_AC3
Duration                                 : 2h 9mn
Bit rate mode                            : Constant
Bit rate                                 : 640 Kbps
Channel(s)                               : 6 channels
Channel positions                        : Front: L C R, Side: L R, LFE
Sampling rate                            : 48.0 KHz
Bit depth                                : 16 bits
Compression mode                         : Lossy
Stream size                              : 593 MiB (9%)
Language                                 : English
Default                                  : No
Forced                                   : No

Text #1
ID                                       : 5
Format                                   : VobSub
Muxing mode                              : zlib
Codec ID                                 : S_VOBSUB
Codec ID/Info                            : The same subtitle format used on DVDs
Language                                 : English
Default                                  : Yes
Forced                                   : No

Text #2
ID                                       : 6
Format                                   : VobSub
Muxing mode                              : zlib
Codec ID                                 : S_VOBSUB
Codec ID/Info                            : The same subtitle format used on DVDs
Language                                 : English
Default                                  : No
Forced                                   : No

Text #3
ID                                       : 7
Format                                   : VobSub
Muxing mode                              : zlib
Codec ID                                 : S_VOBSUB
Codec ID/Info                            : The same subtitle format used on DVDs
Language                                 : French
Default                                  : No
Forced                                   : No

Text #4
ID                                       : 8
Format                                   : VobSub
Muxing mode                              : zlib
Codec ID                                 : S_VOBSUB
Codec ID/Info                            : The same subtitle format used on DVDs
Language                                 : Spanish
Default                                  : No
Forced                                   : No


[b] Title: Pain and Gain [/ b]
[b] Genre: Comedy [/ b]
[b] Year: 2013 [/ b]
[b] Format: MKV [/ b]
[b] Size: 6.61Gb [/ b]
[b] Duration: 2hrs 09min [/ b]
[b] Quality: HD 1080[/ b]
[b] Resolution: 1920x800 [/ b]
[b] Language: English,french,spanish [/ b]
[b] Subtitles: Spanish,english,french VOBSUB (I recommend to open with VLC)[/ b]

Pain and gain 2013 BD1080p Spanish latin/Eng/French+Subs PAG_s

Eight interchangeable links, multiple servers:

Freakshare:

[You must be registered and logged in to see this link.]
[You must be registered and logged in to see this link.]
[You must be registered and logged in to see this link.]
[You must be registered and logged in to see this link.]
[You must be registered and logged in to see this link.]
[You must be registered and logged in to see this link.]
[You must be registered and logged in to see this link.]
[You must be registered and logged in to see this link.]


Rapidgator:

[You must be registered and logged in to see this link.]
[You must be registered and logged in to see this link.]
[You must be registered and logged in to see this link.]
[You must be registered and logged in to see this link.]
[You must be registered and logged in to see this link.]
[You must be registered and logged in to see this link.]
[You must be registered and logged in to see this link.]
[You must be registered and logged in to see this link.]

Uploaded:

[You must be registered and logged in to see this link.]
[You must be registered and logged in to see this link.]
[You must be registered and logged in to see this link.]
[You must be registered and logged in to see this link.]
[You must be registered and logged in to see this link.]
[You must be registered and logged in to see this link.]
[You must be registered and logged in to see this link.]
[You must be registered and logged in to see this link.]

Turbobit:

[You must be registered and logged in to see this link.]
[You must be registered and logged in to see this link.]
[You must be registered and logged in to see this link.]
[You must be registered and logged in to see this link.]
[You must be registered and logged in to see this link.]
[You must be registered and logged in to see this link.]
[You must be registered and logged in to see this link.]
[You must be registered and logged in to see this link.]



Last edited by +advisor-yahoo-world+ on 14/8/2013, 9:48 pm; edited 2 times in total (Reason for editing : Left alignment)





Message (Page 1 of 1)

Permissions in this forum:
You cannot reply to topics in this forum


  • Total Posts:
  • Total Members:
  • Newest Member:
  • Most Online: Most users ever online was 20 on 20/1/2014, 2:07 am

In total there is 0 user online :: 0 Registered, 0 Hidden and 0 Guests
Users browsing this forum: None