pastime

Entertainment


You are not connected. Please login or register

 
 

Hatchet III 2013 1080p BluRay DTS.x264

Message (Page 1 of 1)

#1

Invulnever

Invulnever
 
Supporter
Supporter

Posted on 17/8/2013, 1:53 am

 

*
POPULAR

Hatchet III 2013 1080p BluRay DTS.x264 DVb3_CDHYwf_Lofb_1_l_235x300

A search and recovery team heads into the haunted swamp to pick up the pieces and Marybeth learns the secret to ending the voodoo curse that has left Victor Crowley haunting and terrorizing Honey Island Swamp for decades. 

Code:
IMDB:http://www.imdb.com/title/tt1870419/

[Title: Hatchet 3 UNRATED
[Genre: Horror
[Year: 2013
Format: MKV
Size: 6.53Gb
Duration: 1hrs 21min
Quality: Blue Ray 1080
Resolution: 1920x800
Language: English DTS 5.1
English OGG 2.0 Ch 52 kbps - Technical Commentary
English OGG 2.0 Ch 52 kbps - Directors Commentary
Subtitles:Spanish and English VOB
MEDIA INFO


Format : Matroska
Format version : Version 4 / Version 2
File size : 6.53 GiB
Duration : 1h 21mn
Overall bit rate mode : Variable
Overall bit rate : 11.5 Mbps
Encoded date : UTC 2013-08-16 17:37:27
Writing application : mkvmerge v6.3.0 ('You can't stop me!') built on Jun 28 2013 20:09:41
Writing library : libebml v1.3.0 + libmatroska v1.4.0

Video
ID : 1
Format : AVC
Format/Info : Advanced Video Codec
Format profile : High@L4.1
Format settings, CABAC : Yes
Format settings, ReFrames : 5 frames
Codec ID : V_MPEG4/ISO/AVC
Duration : 1h 21mn
Bit rate : 9 873 Kbps
Width : 1 920 pixels
Height : 800 pixels
Display aspect ratio : 2.40:1
Frame rate mode : Constant
Frame rate : 23.976 fps
Color space : YUV
Chroma subsampling : 4:2:0
Bit depth : 8 bits
Scan type : Progressive
Bits/(Pixel*Frame) : 0.268
Stream size : 5.49 GiB (84%)
Writing library : x264 core 133

Language : English
Default : Yes
Forced : No

Audio #1
ID : 2
Format : DTS
Format/Info : Digital Theater Systems
Mode : 16
Format settings, Endianness : Big
Codec ID : A_DTS
Duration : 1h 21mn
Bit rate mode : Constant
Bit rate : 1 509 Kbps
Channel(s) : 6 channels
Channel positions : Front: L C R, Side: L R, LFE
Sampling rate : 48.0 KHz
Bit depth : 24 bits
Compression mode : Lossy
Stream size : 879 MiB (13%)
Language : English
Default : Yes
Forced : No

Audio #2
ID : 3
Format : Vorbis
Format settings, Floor : 1
Codec ID : A_VORBIS
Duration : 1h 21mn
Bit rate mode : Variable
Bit rate : 52.3 Kbps
Channel(s) : 2 channels
Sampling rate : 48.0 KHz
Compression mode : Lossy
Stream size : 30.5 MiB (0%)
Writing library : aoTuV 20110424 (UTC 2011-04-24)
Language : English
Default : No
Forced : No

Audio #3
ID : 4
Format : Vorbis
Format settings, Floor : 1
Codec ID : A_VORBIS
Duration : 1h 21mn
Bit rate mode : Variable
Bit rate : 52.3 Kbps
Channel(s) : 2 channels
Sampling rate : 48.0 KHz
Compression mode : Lossy
Stream size : 30.5 MiB (0%)
Writing library : aoTuV 20110424 (UTC 2011-04-24)
Language : English
Default : No
Forced : No

Text #1
ID : 5
Format : VobSub
Muxing mode : zlib
Codec ID : S_VOBSUB
Codec ID/Info : The same subtitle format used on DVDs
Language : English
Default : No
Forced : No

Text #2
ID : 6
Format : VobSub
Muxing mode : zlib
Codec ID : S_VOBSUB
Codec ID/Info : The same subtitle format used on DVDs
Language : Spanish
Default : No
Forced : No
SCREENSHOTS:

Hatchet III 2013 1080p BluRay DTS.x264 HIIIU_s

Seven interchangeable links, multiple servers:

UL:

Code:
http://uploaded.net/file/uq15xai6/HIIIU.part1.rar
http://uploaded.net/file/kn7nr9na/HIIIU.part2.rar
http://uploaded.net/file/nr5jyupi/HIIIU.part3.rar
http://uploaded.net/file/krdd78cf/HIIIU.part4.rar
http://uploaded.net/file/fbznolkn/HIIIU.part5.rar
http://uploaded.net/file/ieaavlc8/HIIIU.part6.rar
FS:

Code:

http://freakshare.com/files/977ztzdt/HIIIU.part7.rar.html
http://freakshare.com/files/4tgki586/HIIIU.part6.rar.html
http://freakshare.com/files/q35y8ase/HIIIU.part2.rar.html
http://freakshare.com/files/8x6916w8/HIIIU.part3.rar.html
http://freakshare.com/files/hysl2l4v/HIIIU.part4.rar.html
http://freakshare.com/files/b6gwq5u8/HIIIU.part1.rar.html
http://freakshare.com/files/9uqf3h66/HIIIU.part5.rar.html

RG:

Code:

http://rapidgator.net/file/8483f190332ec291263d8dde2497167c/HIIIU.part1.rar.html
http://rapidgator.net/file/a58596d04020a22be8af4d77c02085ea/HIIIU.part2.rar.html
http://rapidgator.net/file/9864e3873613c032d6dd17f6af834360/HIIIU.part3.rar.html
http://rapidgator.net/file/1e75bc80dfd735a806149335cb0bd065/HIIIU.part7.rar.html
http://rapidgator.net/file/62b3259d2469d8efea7ae698f2dcb878/HIIIU.part4.rar.html
http://rapidgator.net/file/a25e8c2f8edc9d159f4ac1518804c7bd/HIIIU.part6.rar.html
http://rapidgator.net/file/718b67471ab801fcdb9612ee4c7da252/HIIIU.part5.rar.html





Message (Page 1 of 1)

Permissions in this forum:
You cannot reply to topics in this forum


  • Total Posts:
  • Total Members:
  • Newest Member:
  • Most Online: Most users ever online was 20 on 20/1/2014, 2:07 am

In total there is 0 user online :: 0 Registered, 0 Hidden and 0 Guests
Users browsing this forum: None