pastime

Entertainment


You are not connected. Please login or register

 
 

Slightly Single in L.A. (2013) 720p BluRay x264-LCHD

Message (Page 1 of 1)

#1

Invulnever

Invulnever
 
Supporter
Supporter

Posted on 17/8/2013, 9:04 pm

 

*
POPULAR

Slightly Single in L.A. (2013) 720p BluRay x264-LCHD 967bb48fd1b4708c09290df810d92a41

Dale Squire is a hip, quirky, independent single gal living in the glossy city of Los Angeles. After several failed attempts in quasi-relationships, Dale concludes that finding a meaningful relationship in L.A.

Code:
IMDB:http://www.imdb.com/title/tt1227931/

Title: Slightly Single in L.A
Genre: Comedy
Year: 2013
Format: MKV
Size: 4.36Gb
Duration: 1hr 28mn
Quality: Blue Ray 720
Resolution: 128x688
Language: English DTS 5.1
Subtitles:NONE
MEDIA INFO



Complete name                            : Slightly_Bluray.720p\SSLA.mkv
Format                                   : Matroska
Format version                           : Version 2
File size                                : 4.36 GiB
Duration                                 : 1h 28mn
Overall bit rate                         : 7 092 Kbps
Encoded date                             : UTC 2013-08-16 13:05:34
Writing application                      : mkvmerge v2.9.0 ('Moanin'') built on May 22 2009 17:46:31
Writing library                          : libebml v0.7.7 + libmatroska v0.8.1

Video
ID                                       : 1
Format                                   : AVC
Format/Info                              : Advanced Video Codec
Format profile                           : High@L4.1
Format settings, CABAC                   : Yes
Format settings, ReFrames                : 5 frames
Codec ID                                 : V_MPEG4/ISO/AVC
Duration                                 : 1h 28mn
Bit rate                                 : 5 581 Kbps
Width                                    : 1 280 pixels
Height                                   : 688 pixels
Display aspect ratio                     : 1.85:1
Frame rate mode                          : Constant
Frame rate                               : 23.976 fps
Color space                              : YUV
Chroma subsampling                       : 4:2:0
Bit depth                                : 8 bits
Scan type                                : Progressive
Bits/(Pixel*Frame)                       : 0.264
Stream size                              : 3.35 GiB (77%)
Writing library                          : x264 core 133 r2334 a3ac64b

Language                                 : English
Default                                  : Yes
Forced                                   : No

Audio
ID                                       : 2
Format                                   : DTS
Format/Info                              : Digital Theater Systems
Mode                                     : 16
Format settings, Endianness              : Big
Codec ID                                 : A_DTS
Duration                                 : 1h 28mn
Bit rate mode                            : Constant
Bit rate                                 : 1 509 Kbps
Channel(s)                               : 6 channels
Channel positions                        : Front: L C R, Side: L R, LFE
Sampling rate                            : 48.0 KHz
Bit depth                                : 16 bits
Compression mode                         : Lossy
Stream size                              : 951 MiB (21%)
Language                                 : English
Default                                  : Yes
Forced                                   : No
SCREENSHOTS:
Slightly Single in L.A. (2013) 720p BluRay x264-LCHD SSLA_s

Five interchangeable links, multiple servers:

UL:

Code:
http://ul.to/t14n5312
http://ul.to/rt3yfkro
http://ul.to/gp9erj68
http://ul.to/n4eotag5
http://ul.to/by189650
FS:

Code:

http://freakshare.com/files/asrkjtxc/SSLA.part5.rar.html
http://freakshare.com/files/z5ueo3mm/SSLA.part4.rar.html
http://freakshare.com/files/qq996lvk/SSLA.part2.rar.html
http://freakshare.com/files/474e05qj/SSLA.part3.rar.html
http://freakshare.com/files/l9yj54b9/SSLA.part1.rar.html
RG:

Code:

http://rapidgator.net/file/82d4c93973a6a9148dcf4e31229a7b6a/SSLA.part1.rar.html
http://rapidgator.net/file/f4aa41ef48e5b633a7f5c84601946f44/SSLA.part3.rar.html
http://rapidgator.net/file/2edd573a5885918b2e21eb3430fc1ce3/SSLA.part2.rar.html
http://rapidgator.net/file/c4dcf7d03eabbeb3ccbb7b696ca6e3c0/SSLA.part5.rar.html
http://rapidgator.net/file/5cfe4dbe55324b294479a6e6e0042c11/SSLA.part4.rar.html



Last edited by yahoo-world on 17/8/2013, 9:57 pm; edited 2 times in total (Reason for editing : Left Alignment)





Message (Page 1 of 1)

Permissions in this forum:
You cannot reply to topics in this forum


  • Total Posts:
  • Total Members:
  • Newest Member:
  • Most Online: Most users ever online was 20 on 20/1/2014, 2:07 am

In total there is 0 user online :: 0 Registered, 0 Hidden and 0 Guests
Users browsing this forum: None