pastime

Entertainment


You are not connected. Please login or register

 
 

Pawn Shop Chronicles 2013 LIMITED 1080p BluRay x264-GECKOS

Message (Page 1 of 1)

#1

Invulnever

Invulnever
 
Supporter
Supporter

Posted on 18/8/2013, 10:21 pm

 
Pawn Shop Chronicles 2013 LIMITED 1080p BluRay x264-GECKOS Pawn_Shop_Chronicles_2013_Blu_Ray_Hnmovies

A missing wedding ring leads to a wild-goose chase involving meth addicts, skinheads and an Elvis impersonator.

Code:
IMDB:http://www.imdb.com/title/tt1741243/

Title: Pawn Shop Chronicles
Genre: Comedy
Year: 2013
Format: MKV
Size: 7.65Gb
Duration: 1hr 52mn
Quality: Blue Ray 1080
Resolution: 1920x1080
Language: English AC3 5.1
Subtitles:NONE
MEDIA INFO


Complete name : Pawn.Shop.Chronicles.2013.1080p.BluRay.x264-GECKOS\PASHCH.mkv
Format : Matroska
Format version : Version 4 / Version 2
File size : 7.65 GiB
Duration : 1h 52mn
Overall bit rate : 9 737 Kbps
Encoded date : UTC 2013-08-17 19:18:07
Writing application : mkvmerge v6.3.0 ('You can't stop me!') built on Jun 28 2013 20:09:41
Writing library : libebml v1.3.0 + libmatroska v1.4.0

Video
ID : 1
Format : AVC
Format/Info : Advanced Video Codec
Format profile : High@L4.1
Format settings, CABAC : Yes
Format settings, ReFrames : 4 frames
Codec ID : V_MPEG4/ISO/AVC
Duration : 1h 52mn
Bit rate : 9 097 Kbps
Width : 1 920 pixels
Height : 1 080 pixels
Display aspect ratio : 16:9
Frame rate mode : Constant
Frame rate : 23.976 fps
Color space : YUV
Chroma subsampling : 4:2:0
Bit depth : 8 bits
Scan type : Progressive
Bits/(Pixel*Frame) : 0.183
Stream size : 6.99 GiB (91%)
Title : X264
Writing library : x264 core 133 r2334 a3ac64b
Language : English
Default : Yes
Forced : No

Audio
ID : 2
Format : AC-3
Format/Info : Audio Coding 3
Mode extension : CM (complete main)
Format settings, Endianness : Big
Codec ID : A_AC3
Duration : 1h 52mn
Bit rate mode : Constant
Bit rate : 640 Kbps
Channel(s) : 6 channels
Channel positions : Front: L C R, Side: L R, LFE
Sampling rate : 48.0 KHz
Bit depth : 16 bits
Compression mode : Lossy
Stream size : 515 MiB (7%)
Title : DTS
Language : English
Default : Yes
Forced : No

SCREENSHOTS:
Pawn Shop Chronicles 2013 LIMITED 1080p BluRay x264-GECKOS PASHCH_s

Eight interchangeable links, multiple servers:

UL:

Code:

http://uploaded.net/file/yuc4ee4o/PASHCH.part1.rar
http://uploaded.net/file/598j2ov2/PASHCH.part2.rar
http://uploaded.net/file/ohmc7ain/PASHCH.part3.rar
http://uploaded.net/file/hdvrs2jp/PASHCH.part4.rar
http://uploaded.net/file/uf3xepqy/PASHCH.part5.rar
http://uploaded.net/file/g9rr5p29/PASHCH.part6.rar
http://uploaded.net/file/ky40mu98/PASHCH.part7.rar
http://uploaded.net/file/02xqmzlm/PASHCH.part8.rar
FS:

Code:

http://freakshare.com/files/qgvm0bxb/PASHCH.part8.rar.html
http://freakshare.com/files/jvgo5ya2/PASHCH.part1.rar.html
http://freakshare.com/files/vc85mo9k/PASHCH.part7.rar.html
http://freakshare.com/files/0z63gfa4/PASHCH.part3.rar.html
http://freakshare.com/files/8gdtjibr/PASHCH.part2.rar.html
http://freakshare.com/files/y3y0ocm6/PASHCH.part6.rar.html
http://freakshare.com/files/2rnafyry/PASHCH.part5.rar.html
http://freakshare.com/files/v6hl26kt/PASHCH.part4.rar.html
RG:

Code:

http://rapidgator.net/file/090338cb1f015a4acd303e3b396c56a5/PASHCH.part7.rar.html
http://rapidgator.net/file/1ce805ec46969467aae4759505d70b69/PASHCH.part6.rar.html
http://rapidgator.net/file/717b51c9b0ce855b9da580cdbd9e209e/PASHCH.part8.rar.html
http://rapidgator.net/file/aa49a1a0861da7d0a7da8883699d39c7/PASHCH.part5.rar.html
http://rapidgator.net/file/27ccf14f29aa43117a5f16f169b095aa/PASHCH.part4.rar.html
http://rapidgator.net/file/ffeee4be46bc8856928fde58eeb9c8f0/PASHCH.part3.rar.html
http://rapidgator.net/file/36c2ec896e8eea458e585d82b895ca5b/PASHCH.part2.rar.html
http://rapidgator.net/file/5d5f8efb067c7c974f786093e47dc036/PASHCH.part1.rar.html





Message (Page 1 of 1)

Permissions in this forum:
You cannot reply to topics in this forum


  • Total Posts:
  • Total Members:
  • Newest Member:
  • Most Online: Most users ever online was 20 on 20/1/2014, 2:07 am

In total there is 0 user online :: 0 Registered, 0 Hidden and 0 Guests
Users browsing this forum: None