pastime

Entertainment


You are not connected. Please login or register

 
 

Adore (2013) 1080p BluRay x264 - NODLABS

Message (Page 1 of 1)

#1

Invulnever

Invulnever
 
Supporter
Supporter

Posted on 20/8/2013, 2:06 am

 
Adore (2013) 1080p BluRay x264 - NODLABS Mmez

Lil (Naomi Watts) and Roz (‘Robin Wright’ ) are two lifelong friends, having grown up together as neighbors in an idyllic beach town. As adults, their sons have developed a friendship as strong as that which binds their mothers. One summer, all four are confronted by simmering emotions that have been mounting between them, and each find unexpected happiness in relationships that cross the bounds of convention.

Code:
IMDB:www.imdb.com/title/tt2103267/

Title: Adore
Genre: Drama
Year: 2013
Format: MKV
Size: 7.65Gb
Duration: 1hr 51mn
Quality: Blue Ray 1080
Resolution: 1920x808
Language: English DTS 5.1
Subtitles:NONE

MEDIA INFO


Complete name : adore.2013.1080p.bluray.x264-nodlabs\ADR.mkv
Format : Matroska
Format version : Version 2
File size : 7.65 GiB
Duration : 1h 51mn
Overall bit rate : 9 846 Kbps
Writing application : mkvmerge v4.1.1 ('Bouncin' Back') built on Jul 3 2010 22:54:08
Writing library : libebml v1.0.0 + libmatroska v1.0

Video
ID : 1
Format : AVC
Format/Info : Advanced Video Codec
Format profile : High@L4.1
Format settings, CABAC : Yes
Format settings, ReFrames : 5 frames
Codec ID : V_MPEG4/ISO/AVC
Duration : 1h 51mn
Bit rate : 8 335 Kbps
Width : 1 920 pixels
Height : 808 pixels
Display aspect ratio : 2.40:1
Frame rate mode : Constant
Frame rate : 24.000 fps
Color space : YUV
Chroma subsampling : 4:2:0
Bit depth : 8 bits
Scan type : Progressive
Bits/(Pixel*Frame) : 0.224
Stream size : 6.33 GiB (83%)
Writing library : x264 core 135 r2345 f0c1c53
Language : English
Default : Yes
Forced : No

Audio
ID : 2
Format : DTS
Format/Info : Digital Theater Systems
Mode : 16
Format settings, Endianness : Big
Codec ID : A_DTS
Duration : 1h 51mn
Bit rate mode : Constant
Bit rate : 1 509 Kbps
Channel(s) : 6 channels
Channel positions : Front: L C R, Side: L R, LFE
Sampling rate : 48.0 KHz
Bit depth : 24 bits
Compression mode : Lossy
Stream size : 1.17 GiB (15%)
Language : English
Default : Yes
Forced : No
SCREENSHOTS:
Adore (2013) 1080p BluRay x264 - NODLABS 3xw1

Eight interchangeable links, multiple servers:

UL:

Code:
http://uploaded.net/f/xmnyyd
FS:

Code:

http://freakshare.com/files/lmq7vf8m/ADR.part1.rar.html
http://freakshare.com/files/1w2upvn4/ADR.part2.rar.html
http://freakshare.com/files/8rpdf8gu/ADR.part3.rar.html
http://freakshare.com/files/y6y36q02/ADR.part4.rar.html
http://freakshare.com/files/wf0w7ciu/ADR.part5.rar.html
http://freakshare.com/files/tntsb8dw/ADR.part6.rar.html
http://freakshare.com/files/pu0ajdvf/ADR.part7.rar.html
http://freakshare.com/files/slijh8x7/ADR.part8.rar.html
RG:

Code:

http://rapidgator.net/file/fa2792569f049980f83f761c50704913/ADR.part7.rar.html
http://rapidgator.net/file/80254d43fd78b4ad4fc56ca6b4afb164/ADR.part8.rar.html
http://rapidgator.net/file/4c791169a3d79d1aeacdd6ee08a49732/ADR.part4.rar.html
http://rapidgator.net/file/6c1c01b971a045d04ab23a107eab43cb/ADR.part5.rar.html
http://rapidgator.net/file/26b76d39ce98008f0d70be0902ce86dd/ADR.part6.rar.html
http://rapidgator.net/file/13f2a9426663ab5bf659628cfc4e0fb0/ADR.part3.rar.html
http://rapidgator.net/file/a56d44a84c2ff92c257220d93547ea73/ADR.part1.rar.html
http://rapidgator.net/file/b1ca74e9f4c337368ce52c18ef2d0233/ADR.part2.rar.html





Message (Page 1 of 1)

Permissions in this forum:
You cannot reply to topics in this forum


  • Total Posts:
  • Total Members:
  • Newest Member:
  • Most Online: Most users ever online was 20 on 20/1/2014, 2:07 am

In total there is 0 user online :: 0 Registered, 0 Hidden and 0 Guests
Users browsing this forum: None