pastime

Entertainment


You are not connected. Please login or register

 
 

Star Trek Into Darkness (2013) 1080p WEB DL H264 PublicHD

Message (Page 1 of 1)

#1

Invulnever

avatar
 
Supporter
Supporter

Posted on 22/8/2013, 9:26 am

 


When the crew of the Enterprise is called back home, they find an unstoppable force of terror from within their own organization has detonated the fleet and everything it stands for, leaving our world in a state of crisis. With a personal score to settle, Captain Kirk leads a manhunt to a war-zone world to capture a one man weapon of mass destruction. As our heroes are propelled into an epic chess game of life and death, love will be challenged, friendships will be torn apart, and sacrifices must be made for the only family Kirk has left: his crew.

Code:
IMDB:http://www.imdb.com/title/tt1408101/
TECHNICAL:

Title: Star Trek Into Darkness
Genre: Sci-Fi
Year: 2013
Format: MKV
Size: 4.74Gb
Duration: 2hr 12mn
Quality: Web-Dl 1080
Resolution: 1912x796
Language: English Ac3 5.1
Subtitles:NONE
MEDIA INFO

Complete name : Star.Trek.Into.Darkness.2013.1080p.WEB-DL.H264-PublicHD\STIDD.mkv
Format : Matroska
Format version : Version 4 / Version 2
File size : 4.74 GiB
Duration : 2h 12mn
Overall bit rate : 5 121 Kbps
Encoded date : UTC 2013-08-20 11:37:55
Writing application : mkvmerge v6.3.0 ('You can't stop me!') built on Jun 28 2013 20:09:41
Writing library : libebml v1.3.0 + libmatroska v1.4.0

Video
ID : 1
Format : AVC
Format/Info : Advanced Video Codec
Format profile : High@L4.0
Format settings, CABAC : Yes
Format settings, ReFrames : 5 frames
Codec ID : V_MPEG4/ISO/AVC
Duration : 2h 12mn
Bit rate : 4 635 Kbps
Width : 1 912 pixels
Height : 796 pixels
Display aspect ratio : 2.40:1
Frame rate mode : Constant
Frame rate : 23.976 fps
Color space : YUV
Chroma subsampling : 4:2:0
Bit depth : 8 bits
Scan type : Progressive
Bits/(Pixel*Frame) : 0.127
Stream size : 4.29 GiB (91%)
Language : English
Default : Yes
Forced : No
Color primaries : BT.709
Transfer characteristics : BT.709
Matrix coefficients : BT.709

Audio
ID : 2
Format : AC-3
Format/Info : Audio Coding 3
Mode extension : CM (complete main)
Format settings, Endianness : Big
Codec ID : A_AC3
Duration : 2h 12mn
Bit rate mode : Constant
Bit rate : 384 Kbps
Channel(s) : 6 channels
Channel positions : Front: L C R, Side: L R, LFE
Sampling rate : 48.0 KHz
Bit depth : 16 bits
Compression mode : Lossy
Stream size : 364 MiB (7%)
Language : English
Default : Yes
Forced : No
SCREENSHOTS:


Five interchangeable links, multiple servers:

UL:

Code:
http://ul.to/f/2gg5r4
FS:

Code:

http://freakshare.com/files/o5y24b0e/STIDD.part3.rar.html
http://freakshare.com/files/d8mqt5f2/STIDD.part2.rar.html
http://freakshare.com/files/cr1jzrw7/STIDD.part5.rar.html
http://freakshare.com/files/ttfjj7cv/STIDD.part4.rar.html
http://freakshare.com/files/1c93nzeb/STIDD.part1.rar.html

RG:

Code:

http://rapidgator.net/file/419e4d445c9d0665c016d41ab0288a3a/STIDD.part1.rar.html
http://rapidgator.net/file/5dc4178ae94ef426a3d29ecead710634/STIDD.part2.rar.html
http://rapidgator.net/file/6fe42163802193d307b26486df97d577/STIDD.part3.rar.html
http://rapidgator.net/file/28490390c5e559d9b8b8f70074dea8b5/STIDD.part4.rar.html
http://rapidgator.net/file/3c6ad71ebd031dfe7e490324fb2708d2/STIDD.part5.rar.html





Message (Page 1 of 1)

Permissions in this forum:
You cannot reply to topics in this forum


  • Total Posts:
  • Total Members:
  • Newest Member:
  • Most Online: Most users ever online was 20 on 20/1/2014, 2:07 am

In total there is 0 user online :: 0 Registered, 0 Hidden and 0 Guests
Users browsing this forum: None