pastime

Entertainment


You are not connected. Please login or register

 
 

The English Teacher (2013) LIMITED 1080p BluRay x264 - GECKOS

Message (Page 1 of 1)

#1

Invulnever

Invulnever
 
Supporter
Supporter

Posted on 25/8/2013, 5:10 am

 
The English Teacher (2013) LIMITED 1080p BluRay x264 - GECKOS Lzio

An English teacher's life is disrupted when a former student returns to her small town after failing as a playwright in New York.

Code:
IMDB:http://www.imdb.com/title/tt2055765/

Title: The english teacher
Genre: comedy
Year: 2013
Format: MKV
Size: 6.55Gb
Duration: 1hr 31mn
Quality: Blue Ray 1080
Resolution: 1920x800
Language: English DTS 5.1
Subtitles:NONE
MEDIA INFO


CComplete name : The.English.Teacher.2013.LIMITED.1080p.BluRay.x264-GECKOS [PublicHD]\TET.mkv
Format : Matroska
Format version : Version 4 / Version 2
File size : 6.55 GiB
Duration : 1h 31mn
Overall bit rate : 10.2 Mbps
Encoded date : UTC 2013-08-22 03:18:50
Writing application : mkvmerge v6.2.0 ('Promised Land') built on Apr 28 2013 12:22:01
Writing library : libebml v1.3.0 + libmatroska v1.4.0

Video
ID : 1
Format : AVC
Format/Info : Advanced Video Codec
Format profile : High@L4.1
Format settings, CABAC : Yes
Format settings, ReFrames : 5 frames
Codec ID : V_MPEG4/ISO/AVC
Duration : 1h 31mn
Bit rate : 8 738 Kbps
Width : 1 920 pixels
Height : 800 pixels
Display aspect ratio : 2.40:1
Frame rate mode : Constant
Frame rate : 23.976 fps
Color space : YUV
Chroma subsampling : 4:2:0
Bit depth : 8 bits
Scan type : Progressive
Bits/(Pixel*Frame) : 0.237
Stream size : 5.46 GiB (83%)
Title : X264
Writing library : x264 core 133 r2334 a3ac64b
Language : English
Default : Yes
Forced : No

Audio
ID : 2
Format : DTS
Format/Info : Digital Theater Systems
Mode : 16
Format settings, Endianness : Big
Codec ID : A_DTS
Duration : 1h 31mn
Bit rate mode : Constant
Bit rate : 1 509 Kbps
Channel(s) : 6 channels
Channel positions : Front: L C R, Side: L R, LFE
Sampling rate : 48.0 KHz
Bit depth : 24 bits
Compression mode : Lossy
Stream size : 989 MiB (15%)
Title : DTS
Language : English
Default : Yes
Forced : No
SCREENSHOTS:
The English Teacher (2013) LIMITED 1080p BluRay x264 - GECKOS Vr2x

Seven interchangeable links, multiple servers:

UL:

Code:
http://uploaded.net/file/vvwtj68c/TET.part1.rar
http://uploaded.net/file/kpwxotfy/TET.part2.rar
http://uploaded.net/file/71rom7bo/TET.part3.rar
http://uploaded.net/file/qsxrx9rq/TET.part4.rar
http://uploaded.net/file/z642hcb2/TET.part5.rar
http://uploaded.net/file/sjzq7rak/TET.part6.rar
http://uploaded.net/file/3ugs1c7v/TET.part7.rar
FS:

Code:

http://freakshare.com/files/rod8wzkl/TET.part7.rar.html
http://freakshare.com/files/2m637z8b/TET.part6.rar.html
http://freakshare.com/files/vgilybnl/TET.part4.rar.html
http://freakshare.com/files/6yf6jtqp/TET.part5.rar.html
http://freakshare.com/files/b38iyp6j/TET.part1.rar.html
http://freakshare.com/files/ky6lrfz9/TET.part2.rar.html
http://freakshare.com/files/qwyhnn5j/TET.part3.rar.html
RG:

Code:

http://rapidgator.net/file/c7d0c7d59bc5523e94ed549ad080e4c0/TET.part7.rar.html
http://rapidgator.net/file/eafb5bbf4a9d30837cfb68ae72616317/TET.part6.rar.html
http://rapidgator.net/file/49b3cbb37ea8dce336060ff97490b545/TET.part5.rar.html
http://rapidgator.net/file/1587e6b3720771c20c526867baa53e24/TET.part4.rar.html
http://rapidgator.net/file/f2fc9c45f2ddd3d72d1b11aa0ff46e15/TET.part3.rar.html
http://rapidgator.net/file/94449d88e2f5c40814eb74545e00511a/TET.part1.rar.html
http://rapidgator.net/file/8b8add8e9e3be5c7f6e1724846a4d9c0/TET.part2.rar.html





Message (Page 1 of 1)

Permissions in this forum:
You cannot reply to topics in this forum


  • Total Posts:
  • Total Members:
  • Newest Member:
  • Most Online: Most users ever online was 20 on 20/1/2014, 2:07 am

In total there is 0 user online :: 0 Registered, 0 Hidden and 0 Guests
Users browsing this forum: None